<?xml version="1.0" standalone="no"?>
<!DOCTYPE svg PUBLIC "-//W3C//DTD SVG 1.1//EN" "http://www.w3.org/Graphics/SVG/1.1/DTD/svg11.dtd" >
<svg xmlns="http://www.w3.org/2000/svg">
<metadata>
This is a custom SVG webfont generated by Font Squirrel.
Copyright   : Copyright c 2009 by Roman Shamin  Jovanny Lemonad All rights reserved
Designer    : Roman Shamin
Foundry     : Roman Shamin  Jovanny Lemonad
Foundry URL : httpwwwjovannyru
</metadata>
<defs>
<font id="HattoriHanzoLight" horiz-adv-x="333" >
<font-face units-per-em="2048" ascent="1536" descent="-512" />
<missing-glyph horiz-adv-x="512" />
<glyph unicode=" "  horiz-adv-x="512" />
<glyph unicode="&#x09;" horiz-adv-x="512" />
<glyph unicode="&#xa0;" horiz-adv-x="512" />
<glyph unicode="!" horiz-adv-x="413" d="M102 74q0 41 31 71q31 29 74 29t74 -29q31 -31 30.5 -71.5t-30.5 -71.5q-31 -29 -74 -29t-74 29q-31 31 -31 72zM137 958v476h142v-476q0 -217 -21 -667h-102q-19 450 -19 667z" />
<glyph unicode="&#x22;" horiz-adv-x="569" d="M102 1434h123v-627h-80q-43 197 -43 627zM344 807v627h123q0 -430 -43 -627h-80z" />
<glyph unicode="#" horiz-adv-x="1382" d="M20 410v125h306l94 364h-264v125h295l106 410h129l-106 -410h378l107 410h129l-107 -410h275v-125h-305l-94 -364h264v-125h-297l-105 -410h-129l105 410h-379l-105 -410h-129l105 410h-273zM455 535h379l94 364h-379z" />
<glyph unicode="$" horiz-adv-x="976" d="M61 111l48 77q147 -88 327 -88h4v580q-354 131 -354 393q0 164 102 268q96 96 252 115v133h99v-131q199 -10 325 -92l-41 -88q-131 57 -278 57h-6v-538q205 -70 290 -172q86 -98 86 -265q0 -156 -102 -260q-102 -109 -274 -123v-163h-99v163q-266 15 -379 134zM227 1083 q0 -166 213 -252v496q-213 -39 -213 -244zM539 109q236 39 235 266q0 176 -235 270v-536z" />
<glyph unicode="%" horiz-adv-x="1724" d="M61 1030q0 201 113 318q104 109 254 108q147 0 250 -108q111 -117 110 -318q0 -199 -112 -317q-104 -106 -254 -107q-147 0 -250 107q-111 116 -111 317zM195 1030q0 -311 227 -311q233 0 233 311t-227 311q-233 0 -233 -311zM244 0l1083 1434h152l-1082 -1434h-153z M936 397q0 199 113 318q102 109 251.5 108.5t251.5 -108.5q111 -117 111 -318q0 -199 -115 -317q-102 -106 -252 -107q-147 0 -249 107q-111 116 -111 317zM1069 397.5q0 -311.5 227 -311.5q233 0 233.5 311.5t-229.5 311.5q-231 0 -231 -311.5z" />
<glyph unicode="&#x26;" horiz-adv-x="1275" d="M61 354q0 131 86 238q63 78 228 199q-166 213 -166 354q0 154 104 237q92 74 240 74q135 0 225 -70q96 -74 96 -198q0 -119 -86 -217q-68 -78 -245 -199q82 -98 196 -213l213 -207q80 154 80 330h105q0 -248 -95 -414l213 -186l-55 -80q-78 41 -225 168 q-174 -197 -455 -197q-221 0 -342 103q-117 100 -117 278zM195 356q0 -131 94 -200q90 -68 239 -68q225 0 359 162l-250 248q-96 98 -195 211q-247 -189 -247 -353zM340 1155q0 -123 141 -305q160 121 195 156q80 82 80 176q0 76 -60 121q-55 39 -143 38q-213 0 -213 -186z " />
<glyph unicode="'" horiz-adv-x="329" d="M102 1434h125l-6 -627h-112z" />
<glyph unicode="(" horiz-adv-x="532" d="M82 547q0 438 197 717q96 139 194 190l49 -61q-74 -66 -149 -205q-150 -279 -150 -641.5t150 -640.5q76 -137 149 -205l-49 -61q-98 51 -194 190q-197 279 -197 717z" />
<glyph unicode=")" horiz-adv-x="532" d="M10 -299q76 68 150 205q150 279 149.5 641t-149.5 641q-74 139 -150 205l49 61q98 -51 197 -190q195 -279 195 -717t-195 -717q-98 -139 -197 -190z" />
<glyph unicode="*" horiz-adv-x="772" d="M61 1094v112q115 0 242 -24l-127 221l96 57q47 -82 101 -221l127 221l98 -57q-51 -88 -141 -197h254v-112q-117 0 -240 24l127 -221l-98 -55q-55 96 -99 219l-129 -219l-96 55q51 94 141 197h-256z" />
<glyph unicode="+" horiz-adv-x="1024" d="M41 553v125h405v407h132v-407h405v-125h-405v-408h-132v408h-405z" />
<glyph unicode="," d="M61 74q0 41 31 71q31 29 74 29t74 -29q31 -31 30 -71q6 -53 -16 -121q-31 -100 -131 -176l-49 45q66 66 82 151q-95 9 -95 101z" />
<glyph unicode="-" horiz-adv-x="696" d="M41 471v125h614v-125h-614z" />
<glyph unicode="." horiz-adv-x="331" d="M61 74q0 41 31 71q31 29 74 29q45 0 74 -29q31 -31 30.5 -71.5t-30.5 -71.5q-29 -29 -74 -29q-43 0 -74 29q-31 31 -31 72z" />
<glyph unicode="/" horiz-adv-x="804" d="M0 0l676 1434h129l-676 -1434h-129z" />
<glyph unicode="0" horiz-adv-x="1157" d="M82 714.5q0 741.5 496 741.5q498 0 497.5 -741.5t-497.5 -741.5q-496 0 -496 741.5zM231 715q0 -330 88 -477q84 -139 258.5 -139.5t258.5 139.5q88 147 88 477q0 332 -88 479q-84 139 -258.5 139t-258.5 -139q-88 -147 -88 -479z" />
<glyph unicode="1" horiz-adv-x="550" d="M41 1202v98l324 134h84v-1434h-136v1288z" />
<glyph unicode="2" horiz-adv-x="954" d="M61 0v125q0 225 345 502q178 143 237 207q106 119 107 239q0 133 -56 191q-66 68 -231 67q-174 0 -322 -114l-51 86q164 154 399 153q403 0 404 -377q0 -242 -309 -483q-342 -268 -391 -471h684v-125h-816z" />
<glyph unicode="3" horiz-adv-x="995" d="M41 98l37 84q145 -88 371 -88q342 0 342 309q0 324 -293 324h-222v80l431 502h-621v125h788v-125l-395 -459h8q156 0 271 -72q176 -115 176 -379q0 -195 -127 -311q-127 -115 -334 -115q-266 0 -432 125z" />
<glyph unicode="4" horiz-adv-x="1007" d="M41 403v125l534 930h146l-535 -930h508v426h131v-426h142v-125h-142v-403h-131v403h-653z" />
<glyph unicode="5" horiz-adv-x="978" d="M61 98l43 84q86 -88 314 -88q188 0 284 131q70 96 70 221q0 340 -295 340q-176 0 -276 -86l-82 17l57 717h723v-125h-604l-37 -457q86 55 227 55q182 0 303 -114q129 -125 130 -338q0 -201 -136 -340q-137 -141 -340 -142q-266 0 -381 125z" />
<glyph unicode="6" horiz-adv-x="1017" d="M82 707q0 385 164 583q137 166 350 166q176 0 299 -115l-47 -75q-88 76 -227 75q-414 0 -414 -604v-47h6q31 72 109 129q100 72 225 72q184 0 297 -119q113 -121 112 -330q0 -211 -129 -342q-125 -127 -307 -127q-264 0 -364 226q-74 164 -74 508zM217 485 q39 -399 303 -399q125 0 209 86q96 98 96 270q0 150 -69 242q-70 90 -185 90q-164 0 -268 -125q-63 -78 -86 -164z" />
<glyph unicode="7" horiz-adv-x="931" d="M41 1309v125h850v-125l-422 -1309h-143l422 1309h-707z" />
<glyph unicode="8" horiz-adv-x="1054" d="M72 342q0 279 319 426q-252 143 -252 356q0 139 97 232q104 100 290 100q182 0 287 -96q98 -92 98 -242q0 -209 -252 -348q172 -92 244 -180q80 -98 80 -238q0 -174 -119 -274q-123 -104 -340 -104.5t-336 100.5q-116 98 -116 268zM201 358q0 -266 325 -266 q324 0 324 260q0 113 -70 189q-72 76 -254 157l-24 13q-92 -37 -176 -111q-125 -113 -125 -242zM270 1124q0 -170 275 -295l6 -2q233 92 233 285q0 227 -258 227q-256 0 -256 -215z" />
<glyph unicode="9" horiz-adv-x="1017" d="M61 987q0 211 129 342q125 127 308 127q264 0 364 -225q74 -164 74 -508q0 -385 -164 -584q-137 -166 -350 -166q-176 0 -299 115l47 76q88 -76 227 -76q414 0 414 604v47h-6q-31 -72 -109 -129q-100 -72 -225 -71q-184 0 -297 118q-113 121 -113 330zM193 987 q0 -150 69 -242q70 -90 184 -90q164 0 271 127q61 76 84 162q-39 399 -303 399q-125 0 -209 -86q-96 -98 -96 -270z" />
<glyph unicode=":" horiz-adv-x="331" d="M61 74q0 41 31 71q31 29 74 29q45 0 74 -29q31 -31 30.5 -71.5t-30.5 -71.5q-29 -29 -74 -29q-43 0 -74 29q-31 31 -31 72zM61 879q0 41 31 71q31 29 74 29q45 0 74 -29q31 -31 30.5 -71.5t-30.5 -71.5q-29 -29 -74 -29q-43 0 -74 29q-31 31 -31 72z" />
<glyph unicode=";" d="M61 74q0 41 31 71q31 29 74 29t74 -29q31 -31 30 -71q1 -11 2 -24q0 -44 -18 -97q-31 -100 -131 -176l-49 45q66 66 82 151q-95 9 -95 101zM61 879q0 41 31 71q31 29 74 29q45 0 74 -29q31 -31 30.5 -71.5t-30.5 -71.5q-29 -29 -74 -29q-43 0 -74 29q-31 31 -31 72z" />
<glyph unicode="&#x3c;" horiz-adv-x="1044" d="M41 481v103l963 495v-135l-799 -412l799 -411v-135z" />
<glyph unicode="=" horiz-adv-x="1024" d="M41 332v123h942v-123h-942zM41 772v125h942v-125h-942z" />
<glyph unicode="&#x3e;" horiz-adv-x="1044" d="M41 -14v135l799 411l-799 412v135l963 -495v-103z" />
<glyph unicode="?" horiz-adv-x="884" d="M20 1303q164 154 400 153q197 0 309 -108q115 -109 115 -299q0 -209 -205 -387.5t-205 -370.5h-110q0 248 188 418q100 90 129 131q59 86 59 202q0 137 -79.5 213t-227.5 76q-174 0 -321 -114zM274 74q0 41 31 71q31 29 74 29t74 -29q31 -31 30.5 -71.5t-30.5 -71.5 q-31 -29 -74 -29t-74 29q-31 31 -31 72z" />
<glyph unicode="@" horiz-adv-x="1748" d="M61 690q0 408 279 668q256 238 606 237q348 0 549 -192q193 -188 193 -496q0 -291 -156 -501q-139 -188 -293 -189q-151 0 -151 195q0 19 2 41q-18 -59 -66 -117q-96 -119 -240 -119q-131 0 -219 100q-100 115 -100 322q0 233 137 410q143 184 348 184q131 0 219 -72 l7 47h120l-88 -716q-6 -40 -5 -70q0 -92 52 -92q96 0 197 125q133 166 133 452q0 279 -186 439q-174 147 -453 147q-276 0 -497 -193q-262 -227 -263 -610q0 -367 232 -567q195 -170 471 -170q365 0 573 254l60 -53q-236 -307 -633 -308q-350 0 -580 213q-248 230 -248 631z M598 649q0 -319 205 -319q139 0 241 202q51 100 76 201l37 326q-72 68 -207 67q-158 0 -258 -149q-94 -138 -94 -328z" />
<glyph unicode="A" horiz-adv-x="1165" d="M41 0l455 1434h131l497 -1434h-139l-149 434h-527l-137 -434h-131zM346 551h449l-234 676z" />
<glyph unicode="B" horiz-adv-x="1142" d="M102 0v1434h418q475 0 475 -355q0 -180 -118 -260q-59 -41 -119 -45v-6q76 -8 151 -55q152 -96 152 -299q0 -205 -109 -305q-121 -109 -387 -109h-463zM231 125h334q180 0 252 45q102 61 103 244q0 279 -328 278h-361v-567zM231 817h318q135 0 221 68q92 70 92 194.5 t-84 180.5q-82 51 -258 51h-289v-494z" />
<glyph unicode="C" horiz-adv-x="1142" d="M82 702q0 406 192 601q150 154 388 153q233 0 409 -127l-41 -80q-147 82 -323 82q-479 0 -480 -629q0 -604 484 -604q215 0 350 95l41 -80q-152 -139 -436 -140q-248 0 -400 156q-184 186 -184 573z" />
<glyph unicode="D" horiz-adv-x="1171" d="M102 0v1434h406q258 0 414 -174q168 -190 168 -545q0 -350 -168 -541q-156 -174 -414 -174h-406zM233 125h275q186 0 301 135q133 154 133 455q0 303 -133 459q-115 135 -301 135h-275v-1184z" />
<glyph unicode="E" horiz-adv-x="1007" d="M102 0v1434h836v-125h-707v-506h603v-125h-603v-553h715v-125h-844z" />
<glyph unicode="F" horiz-adv-x="978" d="M102 0v1434h836v-125h-707v-508h600v-125h-600v-676h-129z" />
<glyph unicode="G" horiz-adv-x="1204" d="M82 702q0 389 192 590q156 164 388 164q233 0 409 -127l-39 -80q-150 82 -325 82q-215 0 -340 -145q-137 -162 -138 -484q0 -604 471 -604q135 0 271 74v561h131v-627q-152 -133 -436 -133q-248 0 -400 156q-184 186 -184 573z" />
<glyph unicode="H" horiz-adv-x="1218" d="M102 0v1434h129v-633h754v633h131v-1434h-131v676h-754v-676h-129z" />
<glyph unicode="I" d="M102 0v1434h129v-1434h-129z" />
<glyph unicode="J" horiz-adv-x="462" d="M0 68q117 33 170 108q61 90 61 273v985h129v-985q0 -457 -346 -476z" />
<glyph unicode="K" horiz-adv-x="1079" d="M102 0v1434h129v-723l609 723h166l-537 -637l610 -797h-164l-532 694l-152 -178v-516h-129z" />
<glyph unicode="L" horiz-adv-x="987" d="M102 0v1434h129v-1309h715v-125h-844z" />
<glyph unicode="M" horiz-adv-x="1495" d="M102 0v1434h129l531 -1012l500 1012h131v-1434h-131v1145l-439 -875h-118l-474 891v-1161h-129z" />
<glyph unicode="N" horiz-adv-x="1245" d="M102 0v1434h146l766 -1225v1225h129v-1434h-146l-766 1225v-1225h-129z" />
<glyph unicode="O" horiz-adv-x="1325" d="M82 714.5q0 366.5 168 563.5q154 178 414 178t413 -178q166 -195 166 -563.5t-166 -562.5q-154 -178 -414 -178.5t-413 178.5q-168 196 -168 562.5zM229 714.5q0 -317.5 133 -476.5q113 -139 301.5 -139.5t301.5 139.5q133 160 133 477t-133 477q-113 139 -301.5 139 t-301.5 -139q-133 -160 -133 -477.5z" />
<glyph unicode="P" horiz-adv-x="1091" d="M102 0v1434h375q553 0 553 -418q0 -430 -553 -430h-239v-586h-136zM238 711h239q190 0 285 51q127 72 127 254q0 180 -131 246q-90 47 -281 47h-239v-598z" />
<glyph unicode="Q" horiz-adv-x="1339" d="M82 714.5q0 366.5 168 563.5q154 178 414 178t413 -178q166 -195 166 -563q0 -584 -393 -713l407 -260l-38 -61q-160 41 -555 292q-260 0 -414 179q-168 196 -168 562.5zM229 714.5q0 -317.5 133 -476.5q113 -139 302 -140q186 0 301 140q131 160 131 477t-131 477 q-115 139 -301 139q-188 0 -302 -139q-133 -160 -133 -477.5z" />
<glyph unicode="R" horiz-adv-x="1091" d="M102 0v1434h377q551 0 551 -418q0 -315 -309 -402l309 -614h-145l-297 590q-70 -4 -109 -4h-239v-586h-138zM240 711h239q190 0 283 51q127 70 127 254q0 180 -129 246q-90 47 -281 47h-239v-598z" />
<glyph unicode="S" horiz-adv-x="1091" d="M61 106l41 87q195 -94 402 -95q383 0 383 273q0 106 -90 174q-74 57 -260 119q-223 76 -310 137q-141 102 -141 270q0 182 131 287q125 98 334 98q238 0 426 -92l-29 -88q-166 55 -354 55q-367 0 -367 -252q0 -115 107 -180q57 -39 239 -96q240 -80 338 -164 q119 -104 119 -281q0 -180 -131 -284q-127 -100 -340 -101q-342 0 -498 133z" />
<glyph unicode="T" horiz-adv-x="1067" d="M41 1309v125h985v-125h-428v-1309h-129v1309h-428z" />
<glyph unicode="U" horiz-adv-x="1196" d="M102 487v947h129v-947q0 -389 367 -389q365 0 365 389v947h131v-947q0 -274 -168 -409q-133 -104 -328 -104.5t-326 104.5q-170 135 -170 409z" />
<glyph unicode="V" horiz-adv-x="1196" d="M0 1434h139l459 -1221l459 1221h139l-539 -1434h-118z" />
<glyph unicode="W" horiz-adv-x="1814" d="M0 1434h137l359 -1180l338 1044h147l338 -1044l358 1180h138l-435 -1434h-120l-353 1087l-352 -1087h-121z" />
<glyph unicode="X" horiz-adv-x="1126" d="M0 0l475 723l-463 711h158l383 -588h20l383 588h158l-463 -711l475 -723h-157l-406 616l-405 -616h-158z" />
<glyph unicode="Y" horiz-adv-x="1198" d="M0 1434h145l467 -750l441 750h145l-520 -881v-553h-131v547z" />
<glyph unicode="Z" horiz-adv-x="1054" d="M41 0v125l807 1184h-778v125h936v-125l-807 -1184h815v-125h-973z" />
<glyph unicode="[" horiz-adv-x="534" d="M102 -342v1776h422v-119h-293v-1538h293v-119h-422z" />
<glyph unicode="\" horiz-adv-x="804" d="M0 1434h129l676 -1434h-129z" />
<glyph unicode="]" horiz-adv-x="534" d="M10 -223h293v1538h-293v119h422v-1776h-422v119z" />
<glyph unicode="^" horiz-adv-x="716" d="M0 942l307 492h103l307 -492h-135l-224 358l-223 -358h-135z" />
<glyph unicode="_" horiz-adv-x="614" d="M0 0h614v-125h-614v125z" />
<glyph unicode="`" horiz-adv-x="452" d="M0 1434h178l275 -410h-125z" />
<glyph unicode="a" horiz-adv-x="907" d="M72 233q0 309 608 318v12q0 174 -55 238q-51 61 -189 61q-129 0 -278 -55l-27 76q158 84 336 84q172 0 252 -84q86 -94 86 -320v-563h-100q-12 74 -19 145q-152 -156 -330 -155q-129 0 -206.5 65t-77.5 178zM197 242q0 -147 167.5 -147.5t315.5 177.5v179 q-483 -4 -483 -209z" />
<glyph unicode="b" horiz-adv-x="933" d="M102 72v1362h125v-521q86 66 228 66q184 0 295 -109q123 -123 122 -364q0 -236 -118 -381q-121 -147 -322 -148q-197 1 -330 95zM227 123q86 -35 181 -35q158 0 247 109q92 111 93 309q0 182 -89 276q-82 90 -227 90q-121 0 -205 -79v-670z" />
<glyph unicode="c" horiz-adv-x="811" d="M61 469q0 229 117 373q113 137 283 137q178 0 289 -84l-27 -76q-102 53 -231 53q-133 0 -222 -112q-86 -115 -86 -291q0 -172 88 -281q86 -106 222 -106q150 0 249 55l27 -76q-109 -84 -307 -84q-170 0 -283 127q-119 138 -119 365z" />
<glyph unicode="d" horiz-adv-x="917" d="M61 438q0 539 428 539q115 0 201 -70v492h125v-1399h-100q-12 74 -19 143q-139 -168 -301 -168q-176 0 -262 144q-72 118 -72 319zM193 438q0 -358 213 -358q135 0 284 194v527q-84 74 -192 73q-143 0 -211 -69q-94 -99 -94 -367z" />
<glyph unicode="e" horiz-adv-x="876" d="M61 467q0 231 129 377q119 135 287 135q184 0 271 -164q68 -129 67 -340l-629 -10q0 -186 107 -291q90 -88 219 -88q162 0 260 47l27 -72q-125 -84 -310 -84q-193 0 -307 129q-121 132 -121 361zM190 545q166 27 500 35q-4 125 -55 206q-59 90 -158 91q-102 0 -182 -86 q-87 -94 -105 -246z" />
<glyph unicode="f" horiz-adv-x="618" d="M41 846v108h172v181q0 322 260 321q106 0 207 -76l-27 -71q-96 45 -174 45q-143 0 -143 -219v-181h244v-108q-139 0 -244 14v-860h-123v846h-172z" />
<glyph unicode="g" horiz-adv-x="890" d="M41 -158q0 135 113 248q-51 35 -52 109q0 80 88 168q-88 90 -88 251q0 156 101 254q96 94 243 95q102 0 183 -43q70 31 241 30v-96q-133 0 -170 6l-2 -2q43 -37 72 -112q20 -55 21 -132q0 -152 -99 -249q-96 -96 -246 -97q-111 0 -190 45q-43 -47 -47 -96q-1 -6 -1 -11 q0 -52 75 -52h247q115 0 199 -49q123 -72 123 -226q0 -160 -125 -241q-113 -74 -303 -74q-383 0 -383 274zM160 -137q0 -193 272 -193q301 0 301 213q0 82 -63 131q-57 43 -140 43h-247q-31 0 -43 2q-80 -59 -80 -196zM217 618q0 -246 229 -245q106 0 168 69q59 66 60 176 q0 248 -228 248q-109 0 -170 -67q-59 -68 -59 -181z" />
<glyph unicode="h" horiz-adv-x="925" d="M102 0v1434h125v-607q147 152 312 152q162 0 229 -100q55 -82 55 -250v-629h-125v629q0 129 -32 182q-37 63 -138 63q-150 0 -301 -180v-694h-125z" />
<glyph unicode="i" horiz-adv-x="354" d="M102 1186q0 29 23 51q23 20 53 20q74 0 74 -71.5t-74 -71.5q-76 0 -76 72zM115 0v954h125v-954h-125z" />
<glyph unicode="j" horiz-adv-x="399" d="M-41 -395q109 31 154 114q47 88 47 281v954h125v-954q0 -190 -41 -289q-70 -174 -271 -184zM147 1185.5q0 71.5 76 71.5q74 0 74 -71.5t-74 -71.5q-76 0 -76 71.5z" />
<glyph unicode="k" horiz-adv-x="854" d="M102 0v1434h125v-930l408 450h153l-362 -399l408 -555h-152l-338 463l-117 -129v-334h-125z" />
<glyph unicode="l" horiz-adv-x="376" d="M104 461v973h125v-973q0 -201 11 -264q16 -102 75 -144l-14 -76q-135 14 -174 170q-23 83 -23 314z" />
<glyph unicode="m" horiz-adv-x="1431" d="M102 0v954h101q12 -70 18 -139q115 164 275 164q203 0 256 -195q125 195 295 195q164 0 229 -117q53 -98 53 -313v-549h-125v549q0 326 -166 325q-121 0 -260 -190v-684h-125v588q0 287 -166 286q-123 0 -260 -190v-684h-125z" />
<glyph unicode="n" horiz-adv-x="937" d="M102 0v954h101q12 -72 18 -143q139 168 303 168q311 0 312 -430v-549h-125v549q0 326 -195 325q-141 0 -289 -192v-682h-125z" />
<glyph unicode="o" horiz-adv-x="976" d="M61 477.5q0 235.5 134 374.5q121 127 297 127q174 0 292 -127q131 -139 131 -375q0 -233 -133 -373q-121 -127 -297 -127q-174 0 -292 127q-132 138 -132 373.5zM190 477q0 -193 86 -295q78 -96 209 -96q135 0 215 96q86 102 86 295q0 190 -88 297q-80 96 -206 96 q-123 0 -207 -96q-95 -109 -95 -297z" />
<glyph unicode="p" horiz-adv-x="917" d="M102 -444v1398h101q12 -74 18 -143q139 168 301 168q176 0 262 -141q72 -121 72 -322q0 -539 -428 -539q-113 0 -201 70v-491h-125zM227 154q84 -74 193 -74q143 0 211 70q94 98 94 366q0 358 -213 358q-135 0 -285 -194v-526z" />
<glyph unicode="q" horiz-adv-x="933" d="M61 451q0 236 119 380q121 147 322 148q197 0 329 -94v-1329h-124v487q-86 -66 -228 -66q-184 0 -295 109q-123 123 -123 365zM186 451q0 -182 88 -277q82 -90 228 -90q121 0 205 80v670q-86 35 -181 34q-158 0 -247 -108q-93 -110 -93 -309z" />
<glyph unicode="r" horiz-adv-x="651" d="M102 0v954h101q25 -154 24 -231v-21q14 47 41 86q115 178 363 179v-133q-219 0 -334 -140q-57 -70 -70 -139v-555h-125z" />
<glyph unicode="s" horiz-adv-x="806" d="M61 68l31 67q133 -49 273 -49q260 0 260 176q0 72 -58 111q-47 31 -176 63q-152 39 -221 86q-104 70 -104 189q0 135 104 207q90 61 242 61q160 0 297 -64l-25 -69q-117 29 -246 28q-252 0 -252 -157q0 -63 70 -101q35 -18 162 -57q180 -55 237 -100q90 -68 90 -205 q0 -131 -102 -207q-94 -70 -242 -70q-231 1 -340 91z" />
<glyph unicode="t" horiz-adv-x="702" d="M41 846v108h172v105q0 129 33 233h92v-338h242v-108q-141 0 -242 14v-561q0 -219 141 -219q80 0 176 45l27 -72q-106 -76 -213 -76q-256 0 -256 322v547h-172z" />
<glyph unicode="u" horiz-adv-x="935" d="M102 954h123v-544q0 -328 195 -328q141 0 289 192v680h125v-954h-101q-10 74 -18 145q-139 -168 -303 -168q-309 0 -310 433v544z" />
<glyph unicode="v" horiz-adv-x="835" d="M0 954h127l299 -751l283 751h127l-359 -954h-104z" />
<glyph unicode="w" horiz-adv-x="1277" d="M0 954h121l227 -733l234 643h114l234 -643l227 733h121l-295 -954h-100l-244 670l-244 -670h-100z" />
<glyph unicode="x" horiz-adv-x="815" d="M0 0l326 494l-303 460h141l235 -356h17l235 356h142l-304 -460l326 -494h-145l-262 395l-263 -395h-145z" />
<glyph unicode="y" horiz-adv-x="835" d="M0 954h135l301 -876l271 876h129l-340 -1106q-90 -299 -297 -299q-104 0 -176 76l43 70q68 -39 124 -39q119 0 185 223l35 121h-84z" />
<glyph unicode="z" horiz-adv-x="774" d="M41 0v111l537 731h-519v112h668v-110l-537 -731h543v-113h-692z" />
<glyph unicode="{" horiz-adv-x="612" d="M61 508v90q172 0 172 199v315q0 322 256 322h113v-103h-98q-141 0 -142 -219v-289q0 -152 -67 -225q-33 -37 -68 -45q35 -6 68 -45q68 -74 67 -225v-289q0 -219 142 -219h98v-103h-113q-256 0 -256 322v315q0 199 -172 199z" />
<glyph unicode="|" d="M102 -143v1720h129v-1720h-129z" />
<glyph unicode="}" horiz-adv-x="612" d="M10 -225h99q141 0 141 219v289q0 152 67 225q35 39 68 45q-33 8 -68 45q-68 74 -67 225v289q0 219 -141 219h-99v103h113q256 0 256 -322v-315q0 -199 172 -199v-90q-172 0 -172 -199v-315q0 -322 -256 -322h-113v103z" />
<glyph unicode="~" horiz-adv-x="1058" d="M41 498q84 160 254 159q102 0 260 -67q139 -61 229 -62q100 0 168 82l66 -43q-84 -160 -254 -159q-102 0 -260 67q-139 61 -230 62q-100 0 -168 -82z" />
<glyph unicode="&#xa4;" horiz-adv-x="1132" d="M20 512l21 100h102v52h-123l21 100h102v670h377q266 0 408 -101q143 -100 143 -291q0 -182 -143.5 -280t-407.5 -98h-239v-52h251q164 0 246 -53q76 -49 148 -190l186 -369h-145l-174 344q-86 168 -261 168h-251v-512h-138v512h-123zM281 764h239q188 0 283 47 q127 66 127 231q0 160 -129 224q-92 43 -281 43h-239v-545z" />
<glyph unicode="&#xa6;" d="M102 -143v737h129v-737h-129zM102 840v737h129v-737h-129z" />
<glyph unicode="&#xa7;" horiz-adv-x="884" d="M82 793q0 135 94 213q-63 70 -63 180q0 135 104 207q92 63 242 63q160 0 297 -63l-25 -70q-117 29 -246 29q-252 0 -252 -160q0 -90 89 -148q41 -27 196 -83q135 -53 197 -107q88 -78 88 -207q0 -131 -96 -213q66 -72 65 -180q0 -131 -102 -207q-94 -70 -242 -70 q-231 0 -340 91l31 67q133 -49 272 -49q260 0 260 176q0 90 -88 146q-41 25 -196 79q-135 47 -197 101q-88 76 -88 205zM203 799q0 -121 141 -187q33 -14 133 -49q88 -33 135 -57q70 63 70 149q0 121 -145 183q-31 14 -138 49q-88 29 -135 53q-61 -61 -61 -141z" />
<glyph unicode="&#xa9;" horiz-adv-x="1568" d="M61 715q0 348 222 553q201 188 501 188q311 0 512 -190q211 -203 211 -551q0 -340 -217 -547q-205 -195 -506 -195q-297 0 -501 193q-222 207 -222 549zM152 715q0 -324 190 -506q172 -166 442 -166q268 0 441 166q190 182 190 506q0 319 -196 504q-176 166 -434.5 165.5 t-434.5 -165.5q-198 -185 -198 -504zM414 698q0 258 131 389q104 104 258 105q150 0 262 -94l-35 -62q-92 55 -205 56q-293 0 -293 -394q0 -377 297 -376q137 0 209 63l45 -63q-96 -100 -278 -101q-160 0 -264 105q-127 126 -127 372z" />
<glyph unicode="&#xaa;" horiz-adv-x="907" d="M72 233q0 309 608 318v12q0 174 -55 238q-51 61 -189 61q-129 0 -278 -55l-27 76q158 84 336 84q172 0 252 -84q86 -94 86 -320v-563h-100q-12 74 -19 145q-152 -156 -330 -155q-129 0 -206.5 65t-77.5 178zM197 242q0 -147 167.5 -147.5t315.5 177.5v179 q-483 -4 -483 -209z" />
<glyph unicode="&#xab;" horiz-adv-x="782" d="M41 492q236 408 356 518l70 -41l-281 -486l273 -473l-58 -35q-124 111 -360 517zM330 494q236 408 344 487l59 -35l-258 -444l266 -457l-69 -41q-106 82 -342 490z" />
<glyph unicode="&#xac;" horiz-adv-x="888" d="M41 596v125h807v-330h-129v205h-678z" />
<glyph unicode="&#xad;" horiz-adv-x="696" d="M41 471v125h614v-125h-614z" />
<glyph unicode="&#xae;" horiz-adv-x="1568" d="M61 715q0 348 222 553q201 188 501 188q311 0 512 -190q211 -203 211 -551q0 -340 -217 -547q-205 -195 -506 -195q-297 0 -501 193q-222 207 -222 549zM152 715q0 -324 190 -506q172 -166 442 -166q268 0 441 166q190 182 190 506q0 319 -196 504q-176 166 -434.5 165.5 t-434.5 -165.5q-198 -185 -198 -504zM510 242v934h231q358 0 359 -271q0 -207 -201 -262l201 -401h-111l-194 385q-16 -2 -54 -2h-127v-383h-104zM614 719h117q266 0 266 186q0 176 -266 176h-117v-362z" />
<glyph unicode="&#xb0;" horiz-adv-x="808" d="M41 1030q0 201 113 318q104 109 254 108q147 0 249 -108q111 -117 111 -318q0 -199 -113 -317q-104 -106 -254 -107q-147 0 -249 107q-111 116 -111 317zM174 1030q0 -311 227 -311q233 0 233.5 311t-226.5 311q-234 0 -234 -311z" />
<glyph unicode="&#xb1;" horiz-adv-x="1187" d="M41 109v124h1106v-124h-1106zM41 803v125h487v405h131v-405h488v-125h-488v-406h-131v406h-487z" />
<glyph unicode="&#xb2;" horiz-adv-x="954" d="M61 0v125q0 225 345 502q178 143 237 207q106 119 107 239q0 133 -56 191q-66 68 -231 67q-174 0 -322 -114l-51 86q164 154 399 153q403 0 404 -377q0 -242 -309 -483q-342 -268 -391 -471h684v-125h-816z" />
<glyph unicode="&#xb3;" horiz-adv-x="995" d="M41 98l37 84q145 -88 371 -88q342 0 342 309q0 324 -293 324h-222v80l431 502h-621v125h788v-125l-395 -459h8q156 0 271 -72q176 -115 176 -379q0 -195 -127 -311q-127 -115 -334 -115q-266 0 -432 125z" />
<glyph unicode="&#xb5;" horiz-adv-x="935" d="M102 -444v1398h123v-473q0 -389 205 -389q131 0 279 193v669h125v-954h-101q-10 74 -18 145q-139 -168 -293 -168q-121 0 -197 99v-520h-123z" />
<glyph unicode="&#x3bc;" horiz-adv-x="935" d="M102 -444v1398h123v-473q0 -389 205 -389q131 0 279 193v669h125v-954h-101q-10 74 -18 145q-139 -168 -293 -168q-121 0 -197 99v-520h-123z" />
<glyph unicode="&#xb6;" horiz-adv-x="946" d="M61 1036q0 176 132 291q121 106 280 107h371v-1878h-115v1753h-141v-1753h-115v1089q-156 0 -280 111q-132 114 -132 280z" />
<glyph unicode="&#xb7;" horiz-adv-x="512" d="M152 719q0 41 30 72q31 29 74 28q45 0 74 -28q31 -31 30.5 -72t-30.5 -72q-29 -29 -74 -29q-43 0 -74 29q-30 31 -30 72z" />
<glyph unicode="&#xb9;" horiz-adv-x="550" d="M41 1202v98l324 134h84v-1434h-136v1288z" />
<glyph unicode="&#xba;" horiz-adv-x="976" d="M61 477.5q0 235.5 134 374.5q121 127 297 127q174 0 292 -127q131 -139 131 -375q0 -233 -133 -373q-121 -127 -297 -127q-174 0 -292 127q-132 138 -132 373.5zM190 477q0 -193 86 -295q78 -96 209 -96q135 0 215 96q86 102 86 295q0 190 -88 297q-80 96 -206 96 q-123 0 -207 -96q-95 -109 -95 -297z" />
<glyph unicode="&#xbb;" horiz-adv-x="782" d="M41 45l266 457l-258 444l60 35q109 -80 344 -487q-236 -408 -342 -490zM315 969l70 41q121 -111 356 -518q-236 -406 -360 -517l-57 35l272 473z" />
<glyph unicode="&#xc0;" horiz-adv-x="1165" d="M41 0l455 1434h131l497 -1434h-139l-149 434h-527l-137 -434h-131zM172 1989h178l275 -410h-125zM346 551h449l-234 676z" />
<glyph unicode="&#xc2;" horiz-adv-x="1165" d="M41 0l455 1434h131l497 -1434h-139l-149 434h-527l-137 -434h-131zM203 1579l307 492h102l308 -492h-136l-223 358l-223 -358h-135zM346 551h449l-234 676z" />
<glyph unicode="&#xc3;" horiz-adv-x="1165" d="M41 0l455 1434h131l497 -1434h-139l-149 434h-527l-137 -434h-131zM74 1669q84 160 254 160q102 0 260 -68q139 -61 229 -61q100 0 168 82l66 -43q-84 -160 -254 -160q-102 0 -260 68q-139 61 -230 61q-100 0 -168 -82zM346 551h449l-234 676z" />
<glyph unicode="&#xc5;" horiz-adv-x="1165" d="M41 0l455 1434h131l497 -1434h-139l-149 434h-527l-137 -434h-131zM197 1851.5q0 200.5 112 317.5q104 109 254 108q147 0 250 -108q111 -117 111 -318q0 -199 -113 -317q-104 -106 -254 -107q-147 0 -250 107q-110 117 -110 317.5zM330 1851.5q0 -311.5 227 -311.5 q233 0 233.5 311.5t-227.5 311.5q-233 0 -233 -311.5zM346 551h449l-234 676z" />
<glyph unicode="&#xc8;" horiz-adv-x="1007" d="M102 0v1434h836v-125h-707v-506h603v-125h-603v-553h715v-125h-844zM131 1989h178l275 -410h-125z" />
<glyph unicode="&#xca;" horiz-adv-x="1007" d="M102 0v1434h836v-125h-707v-506h603v-125h-603v-553h715v-125h-844zM162 1579l307 492h102l308 -492h-136l-223 358l-223 -358h-135z" />
<glyph unicode="&#xcc;" d="M-223 1989h178l274 -410h-125zM102 0v1434h129v-1434h-129z" />
<glyph unicode="&#xce;" d="M-193 1579l308 492h102l307 -492h-135l-223 358l-223 -358h-136zM102 0v1434h129v-1434h-129z" />
<glyph unicode="&#xd1;" horiz-adv-x="1245" d="M102 0v1434h146l766 -1225v1225h129v-1434h-146l-766 1225v-1225h-129zM135 1669q84 160 254 160q102 0 260 -68q139 -61 230 -61q100 0 168 82l65 -43q-84 -160 -254 -160q-102 0 -260 68q-139 61 -229 61q-100 0 -168 -82z" />
<glyph unicode="&#xd2;" horiz-adv-x="1325" d="M82 714.5q0 366.5 168 563.5q154 178 414 178t413 -178q166 -195 166 -563.5t-166 -562.5q-154 -178 -414 -178.5t-413 178.5q-168 196 -168 562.5zM229 714.5q0 -317.5 133 -476.5q113 -139 301.5 -139.5t301.5 139.5q133 160 133 477t-133 477q-113 139 -301.5 139 t-301.5 -139q-133 -160 -133 -477.5zM274 1989h179l274 -410h-125z" />
<glyph unicode="&#xd4;" horiz-adv-x="1325" d="M82 714.5q0 366.5 168 563.5q154 178 414 178t413 -178q166 -195 166 -563.5t-166 -562.5q-154 -178 -414 -178.5t-413 178.5q-168 196 -168 562.5zM229 714.5q0 -317.5 133 -476.5q113 -139 301.5 -139.5t301.5 139.5q133 160 133 477t-133 477q-113 139 -301.5 139 t-301.5 -139q-133 -160 -133 -477.5zM305 1579l307 492h103l307 -492h-135l-223 358l-224 -358h-135z" />
<glyph unicode="&#xd5;" horiz-adv-x="1325" d="M82 714.5q0 366.5 168 563.5q154 178 414 178t413 -178q166 -195 166 -563.5t-166 -562.5q-154 -178 -414 -178.5t-413 178.5q-168 196 -168 562.5zM176 1669q84 160 254 160q102 0 260 -68q139 -61 230 -61q100 0 167 82l66 -43q-84 -160 -254 -160q-102 0 -260 68 q-139 61 -229 61q-100 0 -168 -82zM229 714.5q0 -317.5 133 -476.5q113 -139 301.5 -139.5t301.5 139.5q133 160 133 477t-133 477q-113 139 -301.5 139t-301.5 -139q-133 -160 -133 -477.5z" />
<glyph unicode="&#xd7;" horiz-adv-x="1069" d="M41 215l401 401l-401 402l92 92l402 -401l401 401l92 -92l-401 -402l401 -401l-92 -92l-401 401l-402 -401z" />
<glyph unicode="&#xd9;" horiz-adv-x="1196" d="M102 487v947h129v-947q0 -389 367 -389q365 0 365 389v947h131v-947q0 -274 -168 -409q-133 -104 -328 -104.5t-326 104.5q-170 135 -170 409zM209 1989h178l275 -410h-125z" />
<glyph unicode="&#xdb;" horiz-adv-x="1196" d="M102 487v947h129v-947q0 -389 367 -389q365 0 365 389v947h131v-947q0 -274 -168 -409q-133 -104 -328 -104.5t-326 104.5q-170 135 -170 409zM240 1579l307 492h102l307 -492h-135l-223 358l-223 -358h-135z" />
<glyph unicode="&#xe0;" horiz-adv-x="907" d="M72 233q0 309 608 318v12q0 174 -55 238q-51 61 -189 61q-129 0 -278 -55l-27 76q158 84 336 84q172 0 252 -84q86 -94 86 -320v-563h-100q-12 74 -19 145q-152 -156 -330 -155q-129 0 -206.5 65t-77.5 178zM197 242q0 -147 167.5 -147.5t315.5 177.5v179 q-483 -4 -483 -209zM215 1282h154l174 -270h-107z" />
<glyph unicode="&#xe2;" horiz-adv-x="907" d="M72 233q0 309 608 318v12q0 174 -55 238q-51 61 -189 61q-129 0 -278 -55l-27 76q158 84 336 84q172 0 252 -84q86 -94 86 -320v-563h-100q-12 74 -19 145q-152 -156 -330 -155q-129 0 -206.5 65t-77.5 178zM109 1102l307 491h102l307 -491h-135l-223 358l-223 -358h-135 zM197 242q0 -147 167.5 -147.5t315.5 177.5v179q-483 -4 -483 -209z" />
<glyph unicode="&#xe3;" horiz-adv-x="907" d="M-20 1192q84 160 253 160q102 0 261 -68q139 -61 229 -61q100 0 168 82l65 -43q-84 -160 -254 -160q-102 0 -260 67q-139 61 -229 62q-100 0 -168 -82zM72 233q0 309 608 318v12q0 174 -55 238q-51 61 -189 61q-129 0 -278 -55l-27 76q158 84 336 84q172 0 252 -84 q86 -94 86 -320v-563h-100q-12 74 -19 145q-152 -156 -330 -155q-129 0 -206.5 65t-77.5 178zM197 242q0 -147 167.5 -147.5t315.5 177.5v179q-483 -4 -483 -209z" />
<glyph unicode="&#xe5;" horiz-adv-x="907" d="M72 233q0 309 608 318v12q0 174 -55 238q-51 61 -189 61q-129 0 -278 -55l-27 76q158 84 336 84q172 0 252 -84q86 -94 86 -320v-563h-100q-12 74 -19 145q-152 -156 -330 -155q-129 0 -206.5 65t-77.5 178zM102 1525.5q0 200.5 113 317.5q104 109 254 109 q147 0 250 -109q111 -117 110 -317q0 -199 -112 -318q-104 -106 -254 -106q-147 0 -250 106q-111 117 -111 317.5zM197 242q0 -147 167.5 -147.5t315.5 177.5v179q-483 -4 -483 -209zM236 1525.5q0 -311.5 227 -311.5q233 0 233 311.5t-227 311.5q-233 0 -233 -311.5z" />
<glyph unicode="&#xe7;" horiz-adv-x="811" d="M61 469q0 229 117 373q113 137 283 137q178 0 289 -84l-27 -76q-102 53 -231 53q-133 0 -222 -112q-86 -115 -86 -291q0 -172 88 -281q86 -106 222 -106q150 0 249 55l27 -76q-109 -84 -307 -84q-170 0 -283 127q-119 138 -119 365zM315 -236l13 25q49 -18 100 -18 q96 0 96 65q0 27 -20 41q-18 12 -66 25q-10 2 -18 4l45 37q53 -18 72 -33q33 -25 32 -76q0 -49 -39 -78q-35 -25 -88 -24q-86 -1 -127 32zM420 -8h45v-86h-45v86z" />
<glyph unicode="&#xe8;" horiz-adv-x="864" d="M55 467q0 231 129 377q119 135 287 135q184 0 270 -164q68 -129 68 -340l-629 -10q0 -186 107 -291q90 -88 219 -88q162 0 260 47l27 -72q-125 -84 -310 -84q-193 0 -307 129q-121 132 -121 361zM162 545q166 27 500 35q-4 125 -56 206q-59 90 -157 91q-102 0 -183 -86 q-86 -94 -104 -246zM195 1303h153l174 -271h-106z" />
<glyph unicode="&#xe9;" horiz-adv-x="864" d="M55 467q0 231 129 377q119 135 287 135q184 0 270 -164q68 -129 68 -340l-629 -10q0 -186 107 -291q90 -88 219 -88q162 0 260 47l27 -72q-125 -84 -310 -84q-193 0 -307 129q-121 132 -121 361zM162 545q166 27 500 35q-4 125 -56 206q-59 90 -157 91q-102 0 -183 -86 q-86 -94 -104 -246zM365 1032l170 271h149l-215 -271h-104z" />
<glyph unicode="&#xea;" horiz-adv-x="876" d="M61 467q0 231 129 377q119 135 287 135q184 0 271 -164q68 -129 67 -340l-629 -10q0 -186 107 -291q90 -88 219 -88q162 0 260 47l27 -72q-125 -84 -310 -84q-193 0 -307 129q-121 132 -121 361zM190 545q166 27 500 35q-4 125 -55 206q-59 90 -158 91q-102 0 -182 -86 q-87 -94 -105 -246zM250 1006l188 284h62l188 -284h-82l-137 206l-137 -206h-82z" />
<glyph unicode="&#xec;" horiz-adv-x="354" d="M-213 1790h178l275 -410h-125zM102 1186q0 29 23 51q23 20 53 20q74 0 74 -71.5t-74 -71.5q-76 0 -76 72zM115 0v954h125v-954h-125z" />
<glyph unicode="&#xee;" horiz-adv-x="354" d="M-180 1380l307 492h102l308 -492h-136l-223 359l-223 -359h-135zM102 1186q0 29 23 51q23 20 53 20q74 0 74 -71.5t-74 -71.5q-76 0 -76 72zM115 0v954h125v-954h-125z" />
<glyph unicode="&#xf1;" horiz-adv-x="937" d="M-20 1192q84 160 253 160q102 0 261 -68q139 -61 229 -61q100 0 168 82l65 -43q-84 -160 -254 -160q-102 0 -260 67q-139 61 -229 62q-100 0 -168 -82zM102 0v954h101q12 -72 18 -143q139 168 303 168q311 0 312 -430v-549h-125v549q0 326 -195 325q-141 0 -289 -192 v-682h-125z" />
<glyph unicode="&#xf2;" horiz-adv-x="976" d="M61 477.5q0 235.5 134 374.5q121 127 297 127q174 0 292 -127q131 -139 131 -375q0 -233 -133 -373q-121 -127 -297 -127q-174 0 -292 127q-132 138 -132 373.5zM102 1511h179l274 -409h-125zM190 477q0 -193 86 -295q78 -96 209 -96q135 0 215 96q86 102 86 295 q0 190 -88 297q-80 96 -206 96q-123 0 -207 -96q-95 -109 -95 -297z" />
<glyph unicode="&#xf4;" horiz-adv-x="976" d="M61 477.5q0 235.5 134 374.5q121 127 297 127q174 0 292 -127q131 -139 131 -375q0 -233 -133 -373q-121 -127 -297 -127q-174 0 -292 127q-132 138 -132 373.5zM133 1102l307 491h103l307 -491h-135l-223 358l-224 -358h-135zM190 477q0 -193 86 -295q78 -96 209 -96 q135 0 215 96q86 102 86 295q0 190 -88 297q-80 96 -206 96q-123 0 -207 -96q-95 -109 -95 -297z" />
<glyph unicode="&#xf5;" horiz-adv-x="976" d="M4 1192q84 160 254 160q102 0 260 -68q139 -61 230 -61q100 0 167 82l66 -43q-84 -160 -254 -160q-102 0 -260 67q-139 61 -229 62q-100 0 -168 -82zM61 477.5q0 235.5 134 374.5q121 127 297 127q174 0 292 -127q131 -139 131 -375q0 -233 -133 -373 q-121 -127 -297 -127q-174 0 -292 127q-132 138 -132 373.5zM190 477q0 -193 86 -295q78 -96 209 -96q135 0 215 96q86 102 86 295q0 190 -88 297q-80 96 -206 96q-123 0 -207 -96q-95 -109 -95 -297z" />
<glyph unicode="&#xf7;" horiz-adv-x="1187" d="M41 553v125h1106v-125h-1106zM494 201q0 39 28 67q31 27 72 27t70 -27q29 -29 28 -67q0 -41 -28 -68q-29 -29 -70 -29t-72 29q-28 29 -28 68zM494 1030q0 39 28 68q31 29 72 28.5t70 -28.5q29 -27 28 -68q0 -39 -28 -65q-29 -29 -70 -29t-72 29q-28 26 -28 65z" />
<glyph unicode="&#xf9;" horiz-adv-x="935" d="M78 1511h178l274 -409h-124zM102 410v544h123v-544q0 -328 195 -328q141 0 289 192v680h125v-954h-101q-10 74 -18 145q-139 -168 -303 -168q-310 1 -310 433z" />
<glyph unicode="&#xfb;" horiz-adv-x="935" d="M102 410v544h123v-544q0 -328 195 -328q141 0 289 192v680h125v-954h-101q-10 74 -18 145q-139 -168 -303 -168q-310 1 -310 433zM111 1102l307 491h102l307 -491h-135l-223 358l-223 -358h-135z" />
<glyph unicode="&#x152;" horiz-adv-x="2332" d="M82 714.5q0 366.5 168 563.5q154 178 414 178t413 -178q166 -195 166 -563.5t-166 -562.5q-154 -178 -414 -178.5t-413 178.5q-168 196 -168 562.5zM229 714.5q0 -317.5 133 -476.5q113 -139 301.5 -139.5t301.5 139.5q133 160 133 477t-133 477q-113 139 -301.5 139 t-301.5 -139q-133 -160 -133 -477.5zM1427 0v1434h836v-125h-707v-506h603v-125h-603v-553h715v-125h-844z" />
<glyph unicode="&#x153;" horiz-adv-x="1853" d="M61 477.5q0 235.5 134 374.5q121 127 297 127q174 0 292 -127q131 -139 131 -375q0 -233 -133 -373q-121 -127 -297 -127q-174 0 -292 127q-132 138 -132 373.5zM190 477q0 -193 86 -295q78 -96 209 -96q135 0 215 96q86 102 86 295q0 190 -88 297q-80 96 -206 96 q-123 0 -207 -96q-95 -109 -95 -297zM1038 467q0 231 129 377q119 135 287 135q184 0 270 -164q68 -129 68 -340l-629 -10q0 -186 107 -291q90 -88 219 -88q162 0 260 47l27 -72q-125 -84 -310 -84q-193 0 -307 129q-121 132 -121 361zM1167 545q166 27 500 35 q-4 125 -55 206q-59 90 -158 91q-102 0 -182 -86q-87 -94 -105 -246z" />
<glyph unicode="&#x2c6;" horiz-adv-x="716" d="M0 942l307 492h103l307 -492h-135l-224 358l-223 -358h-135z" />
<glyph unicode="&#x2dc;" horiz-adv-x="512" d="M-487 213q84 160 254 160q102 0 260 -68q139 -61 229 -61q100 0 168 82l65 -43q-84 -160 -253 -160q-102 0 -261 67q-139 61 -229 62q-100 0 -168 -82z" />
<glyph unicode="&#x2000;" horiz-adv-x="1138" />
<glyph unicode="&#x2001;" horiz-adv-x="2277" />
<glyph unicode="&#x2002;" horiz-adv-x="1138" />
<glyph unicode="&#x2003;" horiz-adv-x="2277" />
<glyph unicode="&#x2004;" horiz-adv-x="757" />
<glyph unicode="&#x2005;" horiz-adv-x="569" />
<glyph unicode="&#x2006;" horiz-adv-x="378" />
<glyph unicode="&#x2007;" horiz-adv-x="378" />
<glyph unicode="&#x2008;" horiz-adv-x="284" />
<glyph unicode="&#x2009;" horiz-adv-x="454" />
<glyph unicode="&#x200a;" horiz-adv-x="124" />
<glyph unicode="&#x2010;" horiz-adv-x="696" d="M41 471v125h614v-125h-614z" />
<glyph unicode="&#x2011;" horiz-adv-x="696" d="M41 471v125h614v-125h-614z" />
<glyph unicode="&#x2012;" horiz-adv-x="696" d="M41 471v125h614v-125h-614z" />
<glyph unicode="&#x2013;" horiz-adv-x="1122" d="M41 471v125h1040v-125h-1040z" />
<glyph unicode="&#x2014;" horiz-adv-x="1372" d="M41 471v125h1290v-125h-1290z" />
<glyph unicode="&#x2018;" horiz-adv-x="327" d="M102 807q2 469 54 627h69v-627h-123z" />
<glyph unicode="&#x2019;" d="M102 1434h129v-627h-79q-50 156 -50 627z" />
<glyph unicode="&#x201a;" d="M102 266h129v-626h-79q-50 155 -50 626z" />
<glyph unicode="&#x201c;" horiz-adv-x="571" d="M102 807q2 469 54 627h69v-627h-123zM344 807v627h125v-627h-125z" />
<glyph unicode="&#x201d;" horiz-adv-x="565" d="M102 1434h129v-627h-79q-50 156 -50 627zM344 807v627h119v-627h-119z" />
<glyph unicode="&#x201e;" horiz-adv-x="565" d="M102 266h129v-626h-79q-50 155 -50 626zM344 266h119v-626h-119v626z" />
<glyph unicode="&#x2022;" horiz-adv-x="655" d="M102 716.5q0 100.5 64 162.5q61 63 161.5 63t161.5 -63q63 -61 63.5 -162t-63.5 -162q-61 -63 -161.5 -63t-161.5 63q-64 61 -64 161.5z" />
<glyph unicode="&#x2026;" horiz-adv-x="1159" d="M61 74q0 41 31 71q31 29 74 29q45 0 74 -29q31 -31 30.5 -71.5t-30.5 -71.5q-29 -29 -74 -29q-43 0 -74 29q-31 31 -31 72zM475 74q0 41 31 71q31 29 74 29q45 0 73 -29q31 -31 31 -71.5t-31 -71.5q-29 -29 -73 -29q-43 0 -74 29q-31 31 -31 72zM889 74q0 41 31 71 q31 29 73 29q45 0 74 -29q31 -31 31 -71.5t-31 -71.5q-29 -29 -74 -29q-43 0 -73 29q-31 31 -31 72z" />
<glyph unicode="&#x202f;" horiz-adv-x="454" />
<glyph unicode="&#x2039;" horiz-adv-x="1044" d="M41 481v103l963 495v-135l-799 -412l799 -411v-135z" />
<glyph unicode="&#x203a;" horiz-adv-x="1044" d="M41 -14v135l799 411l-799 412v135l963 -495v-103z" />
<glyph unicode="&#x205f;" horiz-adv-x="569" />
<glyph unicode="&#x20ac;" horiz-adv-x="1110" d="M0 535l29 98h151v147h-180l29 99h159q35 309 191 458q125 119 295 119q233 0 336 -127l-49 -74q-92 78 -242 78q-332 0 -385 -454h592l-29 -99h-569q-2 -25 -2 -78v-69h542l-28 -98h-506q45 -436 389 -437q184 0 291 92l55 -77q-98 -139 -383 -140q-438 0 -498 562h-188z " />
<glyph unicode="&#x2122;" horiz-adv-x="1204" d="M0 1350v84h479v-84h-192v-521h-97v521h-190zM537 829v605h94l225 -408l213 408h94v-605h-94v418l-172 -325h-78l-188 331v-424h-94z" />
<glyph unicode="&#xe000;" horiz-adv-x="955" d="M0 955h955v-955h-955v955z" />
<glyph unicode="&#xfb01;" horiz-adv-x="972" d="M41 846v108h172v181q0 322 260 321q106 0 207 -76l-27 -71q-96 45 -174 45q-143 0 -143 -219v-181h244v-108q-139 0 -244 14v-860h-123v846h-172zM721 1186q0 29 22 51q23 20 54 20q74 0 73.5 -71.5t-73.5 -71.5q-76 0 -76 72zM733 0v954h125v-954h-125z" />
<glyph unicode="&#xfb02;" horiz-adv-x="995" d="M41 846v108h172v181q0 322 260 321q106 0 207 -76l-27 -71q-96 45 -174 45q-143 0 -143 -219v-181h244v-108q-139 0 -244 14v-860h-123v846h-172zM723 461v973h125v-973q0 -201 10 -264q16 -102 76 -144l-14 -76q-135 14 -175 170q-22 83 -22 314z" />
<glyph unicode="&#xfb03;" horiz-adv-x="1591" d="M41 846v108h172v181q0 322 260 321q106 0 207 -76l-27 -71q-96 45 -174 45q-143 0 -143 -219v-181h244v-108q-139 0 -244 14v-860h-123v846h-172zM659 846v108h172v181q0 322 261 321q106 0 206 -76l-26 -71q-96 45 -174 45q-143 0 -144 -219v-181h244v-108 q-139 0 -244 14v-860h-123v846h-172zM1339 1186q0 29 23 51q23 20 53 20q74 0 74 -71.5t-74 -71.5q-76 0 -76 72zM1352 0v954h125v-954h-125z" />
<glyph unicode="&#xfb04;" horiz-adv-x="1613" d="M41 846v108h172v181q0 322 260 321q106 0 207 -76l-27 -71q-96 45 -174 45q-143 0 -143 -219v-181h244v-108q-139 0 -244 14v-860h-123v846h-172zM659 846v108h172v181q0 322 261 321q106 0 206 -76l-26 -71q-96 45 -174 45q-143 0 -144 -219v-181h244v-108 q-139 0 -244 14v-860h-123v846h-172zM1341 461v973h125v-973q0 -201 11 -264q16 -102 75 -144l-14 -76q-135 14 -174 170q-23 83 -23 314z" />
</font>
</defs>
</svg>
